请选择 进入手机版 | 继续访问电脑版
比你逗游戏论坛
逼你逗
查看: 14|回复: 1

[BT下载][血战太平洋][全10集打包][英语/简体特效][BD-MP4][1080P][DiaosMan]

[复制链接]

2万

帖子

2万

主题

4万

金钱

金钱: 45682 威望: 0
贡献: 0 精华: 0
UID: 86253 好友: 1
在线: 1290 小时
注册时间: 2019-3-5
最后登录: 2020-2-21
发表于 2019-6-9 20:18:45 | 显示全部楼层 |阅读模式
电视剧资源
上映时间: 2011
电视地区: 美国
影片类型: 战争
更新状态: 打包
28978a7655f1d80a600b1a23325ef3ff.jpg

◎片  名 -  血战太平洋
◎译  名 -  The Pacific
◎年  代 -  2010年3月14日
◎国  家 -  美国
◎语  言 -  英语
◎集    数 -  10集
◎片  长 -  48 - 52分钟
◎制 片 人 -  史蒂芬·斯皮尔伯格、汤姆·汉克斯
◎导  演 -  卡尔·弗兰克林,戴维·纳特
◎主  演 -  查威廉姆·赛德勒,约瑟夫·梅泽,罗乔恩·塞达,卡洛琳·达芙娜
◎简  介 -  1942年,瓜达卡纳尔岛,美军陆战第1师占领了该岛上的日军机场,由此拉开了太平洋战争上的战略对日大反攻。三个美军海军陆战队士兵莱基、斯莱治和巴斯隆在太平洋上经历了二战时期最为惨烈的太平洋战争。在太平洋上,日本陆军骄横狂妄,对美军发起了猛烈的攻势,期间不乏使用自杀式的袭击。从惨烈的瓜达卡纳尔岛战役、格洛斯特角登陆战,及热带丛林战役,贝里琉岛争夺战,到硫磺岛战役直至冲绳岛战役。莱基、斯莱治和巴斯隆见证了日军的负隅顽抗直至最后的溃败,也亲眼看到战友不断的在这惨烈的战斗中牺牲。
◎分集剧情 -

EP01:瓜达尔卡纳尔-莱基
  Guadalcanal-Leckie
日军偷袭珍珠港后,海军陆战队中士约翰.巴斯隆加入海军陆战队一师,对抗太平洋敌军;记者罗伯特·莱基应募加入了海军陆战军队伍中。尤金·斯莱治因为心脏疾病无法加入陆战队,和他的好友悉尼·菲利普道别,菲利普将要进入新兵训练营地。   
在日军偷袭珍珠港八个月后,由莱基和菲利普加入的海军一师登陆瓜达尔卡纳尔岛,准备去防卫他们的重要战略飞行跑道,并随时应击必然要发生的敌人反攻。

EP02:巴斯隆
  Basilone
1942年10月24日,巴斯隆所在班在Lunga地区的阵地遭到了近3000日军的攻击。日军顶着美军的重机枪,发起一波波的冲锋。在接下来的48小时里,全班15个人12亡,只剩巴斯隆和另外两个伤号战友。巴斯隆用两挺机枪和手枪顶住了日军持续的冲锋。   
在四个月的不断对攻中,精疲力竭的的海军一师撤离瓜达卡纳尔岛。

EP03:墨尔本
  Melbourne
在瓜达卡纳尔岛四个月的精神和生理的折磨考验后,莱基、巴斯龙和他们成千的战友来到了墨尔本。他们被本土人所敬仰,被视为澳大利亚的救世主。   
在一次欢宴中,莱基被一个女孩子所吸引,并爱上了这个女孩的希腊式家庭氛围。同时,巴斯龙被授予荣誉勋章,并被要求回国出售美国战争的债券。

EP04:格鲁斯特-布维尔-巴尼卡
  Gloucester-Pavuvu-Banika
斯莱治最终被海军队招募,在艾略特营地训练抗战。  
海军一师抵达日军占领的格鲁彻斯特海峡,莱基和其它的队员对抗日本军,但他们很快意识到在这场战争中更可怕的敌人是整片能扼制人生存的雨林天然环境本身。   
在格鲁彻斯特海峡幸存后,部队驻扎在了阴僻的布维尔岛,莱基开始展现他对抗的生理能力和思维应变力,并被送到巴尼卡附近的海军医院进行身体治疗和观察。

EP05:贝里琉登陆
   Peleliu Landing
斯莱治和莱基随第一陆战师登陆贝里琉岛。巴斯隆因全国巡回推销战争国债而越来越出名。布维尔岛上,斯莱治来到第一陆战师第五团,与菲利普斯短暂重聚并结实了莱基。斯莱治很快尝到了第一次战斗的滋味,他和莱基和其他第一陆战师的战士们在登陆复杂难攻的贝里琉珊瑚岛时,遇到了负隅顽抗的日本部队。

EP06:贝里琉岛机场
  Peleliu Airfield
海军转攻贝里琉岛最重要的机场阵地。莱基受到爆炸冲击波及而受伤,被送下战场。在令人窒息的华氏115度高温烘烤下,在洁净饮用水不足的困境下,斯莱治、莱基和战友们在夺取贝里琉机场的战斗中遭遇到了工事顽强的敌人。莱基眼看着同志身受重伤,自己也受伤被送离了贝里琉岛。斯莱治目睹了令他震惊的事实,明白了有时候不得不做出某些事情,才能继续生存,继续战斗。

EP07:贝里琉群山
  Peleliu Hills
斯莱治和第五团转移至贝里琉岛的血腥鼻头岭,与日军正面开战。刚刚获赠新外号的“榔头斯莱治”与海军陆战队员们,与立下血战至最后一人军令状的敌人继续着贝里琉的战斗。一位斯莱治崇敬的指挥官战死沙场,斯莱治在悲恸的同时,目睹了敌我双方令人无法想象的野蛮行径,他的道德底线遭到了最残酷的挑战。部队最后终于守住了阵地,他们带着贝里琉岛上彻底改变自己的东西回到了布维尔。

EP08:硫磺岛
  Iwo Jima
巴斯隆转至第五团,登陆硫磺岛。巴斯隆越来越感受到推销国债的困扰,向部队申请到训练营去训练新兵。在盘道尔顿营地,他与丽娜·瑞吉——一位女海军陆战队员经历了一段旋风罗曼史。但这对恋人知道他们的时间不多了,因为巴斯隆马上就要随部队登陆硫磺岛。

EP09:冲绳岛
  Okinawa
斯莱治和第一陆战师登陆冲绳岛。在冲绳岛上战斗了一个多月后,斯莱治和其他第一陆战师队员收到命令,要遣散一队抗击过岛上最顽强日军的战士。蛮荒的生活条件和良知的进退两难,在在让斯莱治和战友们经受着身与心的双重考验和折磨。

EP10:回家
  Home
斯莱治和莱基在日本投降后,回到家乡。日本投降后,伤愈康复的莱基出院回家;斯莱治则回到阿拉巴马,与家人和悉尼·菲利普斯团聚。丽娜拜访了巴斯隆家,和他的家人激动会面。莱基干回了原来的工作,找到了新恋情,很快适应了战后生活。但对于不确定自己为何能毫发无伤幸存下来的斯莱治来说,适应的时间或许要更久一些吧。

◎编码参数
General
Complete name : 血战太平洋.The Pacific.EP01.2010.BluRay.1080p.x264.AAC.特效中字-DiaosMan.mp4
Format                           : MPEG-4
Format profile                   : Base Media
Codec ID                         : isom
File size                        : 1.34 GiB
Duration                         : 52mn 4s
Overall bit rate                 : 3 695 Kbps
Encoded date                     : UTC 2016-04-01 14:43:07
Tagged date                      : UTC 2016-04-01 14:43:07
Writing application              : FormatFactory : www.pcfreetime.com

Video
ID                               : 1
Format                           : AVC
Format/Info                      : Advanced Video Codec
Format profile                   : High@L3.0
Format settings, CABAC           : No
Format settings, ReFrames        : 1 frame
Codec ID                         : avc1
Codec ID/Info                    : Advanced Video Coding
Duration                         : 52mn 4s
Bit rate mode                    : Variable
Bit rate                         : 3 500 Kbps
Maximum bit rate                 : 14.5 Mbps
Width                            : 1 920 pixels
Height                           : 1 080 pixels
Display aspect ratio             : 16:9
Frame rate mode                  : Constant
Frame rate                       : 23.976 fps
Color space                      : YUV
Chroma subsampling               : 4:2:0
Bit depth                        : 8 bits
Scan type                        : Progressive
Bits/(Pixel*Frame)               : 0.070
Stream size                      : 1.25 GiB (93%)
Writing library                  : x264 core 116 r2019 9cc407d
Encoding settings                : cabac=0 / ref=1 / deblock=1:0:0 / analyse=0x3:0x113 / me=hex / subme=7 / psy=1 / psy_rd=1.00:0.00 / mixed_ref=0 / me_range=16 / chroma_me=1 / trellis=1 / 8x8dct=1 / cqm=0 / deadzone=21,11 / fast_pskip=1 / chroma_qp_offset=-2 / threads=6 / sliced_threads=0 / nr=0 / decimate=1 / interlaced=0 / bluray_compat=0 / constrained_intra=0 / bframes=0 / weightp=2 / keyint=250 / keyint_min=23 / scenecut=40 / intra_refresh=0 / rc_lookahead=40 / rc=abr / mbtree=1 / bitrate=3500 / ratetol=1.0 / qcomp=0.60 / qpmin=0 / qpmax=69 / qpstep=4 / ip_ratio=1.40 / aq=1:1.00
Encoded date                     : UTC 2016-04-01 14:43:07
Tagged date                      : UTC 2016-04-01 14:43:30

Audio
ID                               : 2
Format                           : AAC
Format/Info                      : Advanced Audio Codec
Format profile                   : LC
Codec ID                         : 40
Duration                         : 52mn 3s
Bit rate mode                    : Variable
Bit rate                         : 264.6 Kbps
Maximum bit rate                 : 374 Kbps
Channel(s)                       : 6 channels
Channel positions                : Front: L C R, Side: L R, LFE
Sampling rate                    : 48.0 KHz
Compression mode                 : Lossy
Stream size                      : 96.7 MiB (7%)
Encoded date                     : UTC 2016-04-01 14:43:26
Tagged date                      : UTC 2016-04-01 14:43:30

游客,如果您要查看本帖隐藏内容请回复
回复

使用道具 举报

201

帖子

1

主题

478

金钱

金钱: 478 威望: 1000
贡献: 0 精华: 0
UID: 76642 好友: 0
在线: 56 小时
注册时间: 2019-2-19
最后登录: 2020-2-8
发表于 2019-6-9 20:37:37 | 显示全部楼层
6666666
回复

使用道具 举报

游客
请先登录
 懒得打字嘛,点击右侧快捷回复【左侧自定义内容】   【右侧自定义内容】
您需要登录后才可以回帖 登录 | 立即注册

本版积分规则

Archiver|手机版|小黑屋|比你逗游戏论坛

GMT+8, 2020-2-22 06:33 , Processed in 0.178094 second(s), 52 queries . by Discuz!

快速回复 返回顶部 返回列表